Skip to main content

North Mississippi Allstars Live at Recher Theater on 2008-05-18




North Mississippi All-Stars
May 18, 2008
Recher Theater
Towson MD

*** THIS IS A 16-BIT FILESET INTENDED FOR AUDIO CD ***

SOURCE: mbho 603a/ka500hn (hyper, DINa) > sound devices mp2 > busman t-mod edirol r4 (24/96)
PROCESSING: soundforge 8.0 (tracking, fades, resample, dither) > flac 1.2.0a

01 Shake (Yo Mama) >
02 Eaglebird >
03 Blow Out
04 Goin' Down South
05 Keep The Devil Down
06 Mean Ol' Wind Died Down
07 I'd Love To Be A Hippy
08 Shake 'Em On Down
09 No Mo
10 Po Black Maddie >
11 Skinny Woman
12 Drums
13 Sugartown
14 ML (Goin' Home)
15 In My Time of Dying *
16 Poor Boy *
17 Sweet Soul Music *
18 Dixie Fried*
19 Stray Cat Blues *
20 Meet Me In The City *
21 All Night Long > Lovelight > All Night Long >
22 Everybody Needs Somebody To Love >
23 Snake Drive > Mississippi Party > Snake Drive *
24 pre-encore crowd
25 Psychedelic Sex Machine
26 Shimmy She Wobble > Station Blues > Preachin' Blues

* with Alvin "Youngblood" Hart

thanks to ziggypayne for the tracking assistance.


Collection NorthMississippiAllstars
Band/Artist North Mississippi Allstars
Date May 18, 2008
Venue Recher Theater
Location Towson MD

Source mbho 603a/ka500hn (hyper, DINa) > sound devices mp2 > busman t-mod edirol r4 (24/96)
Lineage soundforge 8.0 (tracking, fades, resample, dither) > flac 1.2.0a
Taped by Peter W. King
Transferred by Peter W. King


Notes

length expanded size cdr WAVE problems fmt ratio filename
3:56.67 41788028 B --- -- ---xx flac 0.5132 NMAS2008-05-18_mbho_t01.flac
2:22.60 25189964 B --- -- ---xx flac 0.5597 NMAS2008-05-18_mbho_t02.flac
2:07.08 22421660 B --- -- ---xx flac 0.5094 NMAS2008-05-18_mbho_t03.flac
9:33.37 101164268 B --- -- ---xx flac 0.5348 NMAS2008-05-18_mbho_t04.flac
4:19.38 45777020 B --- -- ---xx flac 0.5617 NMAS2008-05-18_mbho_t05.flac
11:39.22 123355388 B --- -- ---xx flac 0.4954 NMAS2008-05-18_mbho_t06.flac
8:20.08 88218860 B --- -- ---xx flac 0.5004 NMAS2008-05-18_mbho_t07.flac
6:04.67 64367228 B --- -- ---xx flac 0.5269 NMAS2008-05-18_mbho_t08.flac
6:01.38 63769820 B --- -- ---xx flac 0.5013 NMAS2008-05-18_mbho_t09.flac
6:15.22 66201788 B --- -- ---xx flac 0.5314 NMAS2008-05-18_mbho_t10.flac
6:24.38 67827020 B --- -- ---xx flac 0.5342 NMAS2008-05-18_mbho_t11.flac
1:19.22 13987388 B --- -- ---xx flac 0.4727 NMAS2008-05-18_mbho_t12.flac
4:27.15 47134124 B --- -- ---xx flac 0.5251 NMAS2008-05-18_mbho_t13.flac
6:06.60 64703564 B --- -- ---xx flac 0.4162 NMAS2008-05-18_mbho_t14.flac
7:35.53 80386700 B --- -- ---xx flac 0.4776 NMAS2008-05-18_mbho_t15.flac
3:22.60 35773964 B --- -- ---xx flac 0.4950 NMAS2008-05-18_mbho_t16.flac
2:03.00 21697244 B --- -- ---xx flac 0.5604 NMAS2008-05-18_mbho_t17.flac
4:21.00 46040444 B --- -- ---xx flac 0.5167 NMAS2008-05-18_mbho_t18.flac
6:19.30 66926204 B --- -- ---xx flac 0.5038 NMAS2008-05-18_mbho_t19.flac
6:40.22 70611788 B --- -- ---xx flac 0.4922 NMAS2008-05-18_mbho_t20.flac
6:50.53 72448700 B --- -- ---xx flac 0.5172 NMAS2008-05-18_mbho_t21.flac
3:08.30 33233804 B --- -- ---xx flac 0.5345 NMAS2008-05-18_mbho_t22.flac
2:34.60 27306764 B --- -- ---xx flac 0.5328 NMAS2008-05-18_mbho_t23.flac
1:42.45 18098684 B --- -- ---xx flac 0.4345 NMAS2008-05-18_mbho_t24.flac
3:04.15 32492924 B --- -- ---xx flac 0.5067 NMAS2008-05-18_mbho_t25.flac
8:44.23 92487740 B --- -- ---xx flac 0.5200 NMAS2008-05-18_mbho_t26.flac
135:25.68 1433411080 B 0.5095 (26 files)

Reviews

Reviewer: HighPingDrifter - - September 1, 2009
Subject: Fabulous Recording of NMAS!
Quite possibly the best AUD recording I've ever heard ... of course, you would expect that at a 700-seat venue, but I digress ... the sound is so good you'd swear it was SBD ... you can hear band members talking onstage from time to time, and one member of the audience insisting repeatedly "I am the Devil!" Luther Dickinson does an excellent job of channeling the dank spirit of Jimi Hendrix thru the filter of R.L. Burnside and Mississippi Fred McDowell, and Cody Dickinson & Chris Chew lay down a killer backbeat of deep-dish bass and metronymic drum swats, driving this badass bus further and harder than it's ever gone before. Alvin Youngblood Hart comes onstage to deliver the sermon during "In My Time of Dying" and I honestly don't think I have ever heard a better performance of this song anywhere, ever. If you're an NMAS fan, you just *have* to DL this recording right away and burn it. FLAC is best, but the vbr mp3 is great too. Huge thanx to whoever recorded and mixed this show, it's a keep and then some. BOY HOWDY!!

.High*Ping*Drifter.

"When in doubt, I whip it out!"
Reviewer: setter - - May 18, 2009
Subject: smokin'
This is an excellent recording. Outstanding job! The show sounds great! Five stars for quality, 4 for the performance. Thanks so much!

Toodles
Reviewer: su6oxone - - June 30, 2008
Subject: Excellent recording
This is a great recording, the clarity of the guitars really impressed me and made me seriously consider picking up a pair of MBHOs, and I would have if they were easier to find. Crowd noise contributes to the energy of the recording, without being distracting (only part that bothered me was the girl who is audible at the beginning of 'Shake'). Thanks for this quality recording!
Download Options
62.0M
64KBPS M3U
62.0M
64KBPS MP3
62.0M
64KBPS MP3 ZIP
696.5M
FLAC
106.9M
OGG VORBIS
3.5K
TEXT
59.6K
TORRENT
381.4M
VBR M3U
381.4M
VBR MP3
195.5M
VBR ZIP
Uploaded by
peterwking
on 6/5/2008
Views
16,921
Favorites
7
Reviews
3
PEOPLE ALSO FOUND
North Mississippi Allstars
by North Mississippi Allstars
86
1
0
Source: mbho 603a/ka500hn (hyper, DINa) > sound devices mp2 > edirol r09 (24/48)
North Mississippi Allstars
by North Mississippi Allstars
314
1
0
Source: mbho 603a/ka500hn (hyper, DINa) > sound devices mp2 > busman t-mod edirol r4 (24/96)
North Mississippi Allstars
by North Mississippi Allstars
327
1
1
( 1 reviews )
Source: studio projects lsd2 (mid-side) > busman t-mod edirol r4 (24/96)
North Mississippi Allstars
by North Mississippi Allstars
512
1
0
Source: mbho 603a/ka500hn (hyper, DINa) > sound devices mp2 > edirol r09 (24/48)
North Mississippi Allstars
by North Mississippi Allstars
2,502
1
0
Source: studio projects lsd2 (mid-side) > busman t-mod edirol r4 (24/96)
North Mississippi Allstars
by North Mississippi Allstars
16,921
7
3
( 3 reviews )
Source: mbho 603a/ka500hn (hyper, DINa) > sound devices mp2 > busman t-mod edirol r4 (24/96)
Jazzam
by Jazzam
337
0
0
Source: (DSBD + mbho 603a/ka200n > mp2) > t-mod edirol r4
Wayne Horvitz
by Wayne Horvitz
56
0
0
Source: schoeps cmc5-mk4 (cardioid, 2nd row center) > sonosax SX-M2 > Sony D3
Umphreys McGee
by Umphreys McGee
281
0
0
Source: studio projects lsd2 (card, xy) > t-mod edirol r4 (24/96)
Railroad Earth
by Railroad Earth
46
0
0
Source: studio projects LSD2 (xy) > busman t-mod edirol r4 (24/96)